<?xml version="1.0" standalone="no"?>
<!DOCTYPE svg PUBLIC "-//W3C//DTD SVG 1.1//EN" "http://www.w3.org/Graphics/SVG/1.1/DTD/svg11.dtd" >
<svg xmlns="http://www.w3.org/2000/svg">
<metadata>Generated by IcoMoon</metadata>
<defs>
<font id="lwa-icons" horiz-adv-x="1024">
<font-face units-per-em="1024" ascent="960" descent="-64" />
<missing-glyph horiz-adv-x="1024" />
<glyph unicode="&#x20;" horiz-adv-x="512" d="" />
<glyph unicode="&#xe900;" glyph-name="broadcast_all" d="M320 32c0-17.6-14.4-32-32-32h-192c-17.6 0-32 14.4-32 32v192c0 17.6 14.4 32 32 32h192c17.6 0 32-14.4 32-32v-192zM640 32c0-17.6-14.4-32-32-32h-192c-17.6 0-32 14.4-32 32v192c0 17.6 14.4 32 32 32h192c17.6 0 32-14.4 32-32v-192zM960 32c0-17.6-14.4-32-32-32h-192c-17.6 0-32 14.4-32 32v192c0 17.6 14.4 32 32 32h192c17.6 0 32-14.4 32-32v-192zM320 352c0-17.6-14.4-32-32-32h-192c-17.6 0-32 14.4-32 32v192c0 17.6 14.4 32 32 32h192c17.6 0 32-14.4 32-32v-192zM640 352c0-17.6-14.4-32-32-32h-192c-17.6 0-32 14.4-32 32v192c0 17.6 14.4 32 32 32h192c17.6 0 32-14.4 32-32v-192zM960 352c0-17.6-14.4-32-32-32h-192c-17.6 0-32 14.4-32 32v192c0 17.6 14.4 32 32 32h192c17.6 0 32-14.4 32-32v-192zM320 672c0-17.6-14.4-32-32-32h-192c-17.6 0-32 14.4-32 32v192c0 17.6 14.4 32 32 32h192c17.6 0 32-14.4 32-32v-192zM640 672c0-17.6-14.4-32-32-32h-192c-17.6 0-32 14.4-32 32v192c0 17.6 14.4 32 32 32h192c17.6 0 32-14.4 32-32v-192zM960 672c0-17.6-14.4-32-32-32h-192c-17.6 0-32 14.4-32 32v192c0 17.6 14.4 32 32 32h192c17.6 0 32-14.4 32-32v-192z" />
<glyph unicode="&#xe901;" glyph-name="broadcast_exp" d="M896 320h-768c-35.296 0-64 28.672-64 64v448c0 35.296 28.704 64 64 64h768c35.328 0 64-28.704 64-64v-448c0-35.328-28.672-64-64-64zM896 384v0zM128 832v-448h768v448h-768zM832 480c0-17.6-14.4-32-32-32h-576c-17.6 0-32 14.4-32 32v256c0 17.6 14.4 32 32 32h576c17.6 0 32-14.4 32-32v-256zM320 32c0-17.6-14.4-32-32-32h-192c-17.6 0-32 14.4-32 32v192c0 17.6 14.4 32 32 32h192c17.6 0 32-14.4 32-32v-192zM640 32c0-17.6-14.4-32-32-32h-192c-17.6 0-32 14.4-32 32v192c0 17.6 14.4 32 32 32h192c17.6 0 32-14.4 32-32v-192zM960 32c0-17.6-14.4-32-32-32h-192c-17.6 0-32 14.4-32 32v192c0 17.6 14.4 32 32 32h192c17.6 0 32-14.4 32-32v-192z" />
<glyph unicode="&#xe902;" glyph-name="broadcast_one" d="M896 128h-768c-35.296 0-64 28.672-64 64v512c0 35.296 28.704 64 64 64h768c35.328 0 64-28.704 64-64v-512c0-35.328-28.672-64-64-64zM896 192v0zM128 704v-512h768v512h-768zM832 288c0-17.6-14.4-32-32-32h-576c-17.6 0-32 14.4-32 32v320c0 17.6 14.4 32 32 32h576c17.6 0 32-14.4 32-32v-320z" />
<glyph unicode="&#xe903;" glyph-name="hide" d="M368 0h-128c-44.096 0-80 35.872-80 80v736c0 44.096 35.904 80 80 80h128c44.096 0 80-35.904 80-80v-736c0-44.128-35.904-80-80-80zM256 96h96v704h-96v-704zM530.56 411.040l224.896-224.864c24.864-24.8 65.024-24.768 89.888 0 24.864 24.8 24.864 65.152 0 89.984l-179.744 179.776 179.744 179.84c24.864 24.832 24.864 65.152 0 89.92-24.832 24.8-64.992 24.832-89.888 0l-224.896-224.768c-24.736-24.768-24.736-65.024 0-89.888z" />
<glyph unicode="&#xe904;" glyph-name="test" d="M939.040 361.12l-22.88-15.168c12.736 73.696 23.392 176.928-6.144 221.632l-126.496 191.008c-14.464 21.824-38.976 33.472-65.824 31.648-27.616-1.696-56.192-16.864-75.264-38.4-14.656 15.36-35.072 23.616-57.472 22.24-14.016-0.832-28.224-5.248-41.376-12.096-0.224 2.112-0.352 4.256-0.992 5.984-39.072 103.68-139.424 176.032-254.592 176.032-149.984 0-272-122.016-272-272 0-139.136 105.024-254.016 239.936-269.952-1.344-62.208 18.912-133.088 43.904-170.976 57.76-87.68 162.752-125.024 240.928-140.736l80.992-122.336 401.536 265.984-84.256 127.136zM48 672c0 132.352 107.648 240 240 240 106.656 0 198.848-70.368 229.28-169.184-2.464-2.304-5.216-4.384-7.424-6.88-5.6 5.92-12.16 10.432-19.2 14.016-30.304 85.056-111.328 146.048-206.784 146.048-121.44 0-219.872-98.432-219.872-219.872 0-114.752 88-208.864 200.192-218.816-2.368-7.328-3.936-15.296-5.248-23.36-118.656 14.4-210.944 115.552-210.944 238.048zM842.432 297.152l-213.216-141.152c-41.12 0.992-208.064 11.296-276.928 115.808-27.104 41.12-38.112 110.464-32.544 152.288l102.976-155.52 52.384 34.656-247.744 374.144c-7.36 11.072-8.16 21.952-2.528 33.28 7.936 15.936 27.328 28.8 45.12 29.92 12.64 0.672 22.4-4.224 29.76-15.296l132.128-199.552 52.384 34.688-66.080 99.84c-5.024 7.648 6.72 20.544 16.256 26.848 9.568 6.336 26.080 12.128 31.136 4.48l66.112-99.84 52.32 34.784-33.024 49.888c-1.056 1.632-2.624 4.064 0.448 10.176 6.144 12.384 23.648 23.968 37.408 24.8 7.296 0.352 8.512-2.016 9.568-3.616l49.6-74.848 52.32 34.72-16.512 24.928h0.032c-1.056 1.632-2.688 4.032 0.384 10.176 6.144 12.352 23.648 23.904 37.408 24.736 6.912 0.672 8.512-2.016 9.568-3.648l126.528-191.040c18.048-27.392 6.336-140.992-15.264-235.648z" />
<glyph unicode="&#xe905;" glyph-name="show" d="M656 0h128c44.096 0 80 35.872 80 80v736c0 44.096-35.904 80-80 80h-128c-44.096 0-80-35.904-80-80v-736c0-44.128 35.904-80 80-80zM768 96h-96v704h96v-704zM493.408 411.040l-224.896-224.864c-24.864-24.8-65.024-24.768-89.888 0-24.864 24.8-24.864 65.152 0 89.984l179.744 179.808-179.744 179.84c-24.864 24.832-24.864 65.152 0 89.92 24.832 24.8 64.992 24.832 89.888 0l224.896-224.768c24.768-24.8 24.768-65.056 0-89.92z" />
<glyph unicode="&#xe906;" glyph-name="stop" d="M896 160c0-52.8-43.2-96-96-96h-576c-52.8 0-96 43.2-96 96v576c0 52.8 43.2 96 96 96h576c52.8 0 96-43.2 96-96v-576z" />
<glyph unicode="&#xe907;" glyph-name="view-all" d="M720 96h-608c-26.528 0-48 21.504-48 48v416c0 26.496 21.472 48 48 48h608c26.496 0 48-21.504 48-48v-416c0-26.496-21.504-48-48-48zM160 192h512v320h-512v-320zM768 288l174.048-169.376c12.448-12.448 17.952-8.224 17.952 9.376v448c0 17.6-5.504 21.824-17.952 9.376l-174.048-169.376v-128zM320 768v32h288v-32h64v67.808c0 15.552-12.64 28.192-28.192 28.192h-359.616c-15.552 0-28.192-12.64-28.192-28.192v-67.808h64zM224 640v32h416v-32h64v59.040c0 20.416-16.576 36.96-36.96 36.96h-470.080c-20.416 0-36.96-16.576-36.96-36.96v-59.040h64zM736 699.040v-48.448l32 30.944v150.464c0 17.6-8 20.032-17.76 5.376l-46.24-69.376-5.312-8.064c22.048-11.52 37.312-34.336 37.312-60.896zM800 560v-68.224l64 62.272v150.848c0 17.6-6.88 18.304-19.2 6.4-9.536-9.216-61.888-59.84-85.056-82.272 23.936-13.824 40.256-39.424 40.256-69.024z" />
<glyph unicode="&#xe908;" glyph-name="view-none" d="M720 96h-608c-26.528 0-48 21.504-48 48v416c0 26.496 21.472 48 48 48h608c26.496 0 48-21.504 48-48v-416c0-26.496-21.504-48-48-48zM160 192h512v320h-512v-320zM768 288l174.048-169.376c12.448-12.448 17.952-8.224 17.952 9.376v448c0 17.6-5.504 21.824-17.952 9.376l-174.048-169.376v-128zM320 768v32h288v-32h64v67.808c0 15.552-12.64 28.192-28.192 28.192h-359.616c-15.552 0-28.192-12.64-28.192-28.192v-67.808h64zM224 640v32h416v-32h64v59.040c0 20.416-16.576 36.96-36.96 36.96h-470.080c-20.416 0-36.96-16.576-36.96-36.96v-59.040h64zM862.067 864.009l65.936-65.936-830.056-830.056-65.936 65.936 830.056 830.056z" />
<glyph unicode="&#xe909;" glyph-name="delete" d="M669.824 928h-573.824v-960h832v704l-258.176 256zM672 832.352l151.136-160.352h-151.136v160.352zM160 32v832h448v-256h256v-576h-704zM704 544c-8.16 6.336-108.352-29.056-226.080-106.464-41.632 33.28-89.568 62.496-145.056 83.136-41.088 8.288-33.216 8.608-43.584-5.6l-37.664-51.744c-10.368-14.208-22.272-37.952 8.064-43.2 49.12-8.512 93.664-24 133.984-43.68-54.912-43.744-109.888-95.872-158.144-156.992-20.512-36.576-18.432-28.96-8.064-43.232l37.632-51.744c10.336-14.24 29.28-32.864 43.616-5.632 43.904 83.52 101.888 154.624 159.936 213.504 150.432-104.704 221.92-255.744 229.76-234.016 4.192 11.552-43.936 166.368-168.288 292.288 102.272 91.136 188.352 142.144 173.888 153.376z" />
<glyph unicode="&#xe90a;" glyph-name="new-case" d="M480 448h-224v-224h224v-151.904l263.808 263.904-263.808 263.904zM669.824 928h-573.824v-960h832v704l-258.176 256zM672 832.352l151.136-160.352h-151.136v160.352zM864 32h-704v832h448v-256h256v-576z" />
<glyph unicode="&#xe90b;" glyph-name="new-book" d="M669.824 928h-573.824v-960h832v704l-258.176 256zM672 832.352l151.136-160.352h-151.136v160.352zM864 32h-704v832h448v-256h256v-576zM301.248 429.248l-90.496-90.496 239.68-239.712 333.12 370.144-95.104 85.632-242.88-269.856z" />
<glyph unicode="&#xe90c;" glyph-name="close" d="M777.376 406.624l-121.376-121.376-121.376 121.376-45.248-45.248 121.376-121.376-121.376-121.376 45.248-45.248 121.376 121.376 121.376-121.376 45.248 45.248-121.376 121.376 121.376 121.376zM896 538.112v133.888l-258.176 256h-573.824v-960h312.96c17.568-19.488 42.752-32 71.040-32h416c52.928 0 96 43.072 96 96v416c0 41.664-26.848 76.832-64 90.112zM640 832.352l151.136-160.352h-151.136v160.352zM352 448v-416h-224v832h448v-256h256v-64h-384c-52.928 0-96-43.072-96-96zM896 32c0-17.664-14.336-32-32-32h-416c-17.632 0-32 14.336-32 32v416c0 17.632 14.368 32 32 32h416c17.664 0 32-14.368 32-32v-416z" />
<glyph unicode="&#xe90d;" glyph-name="officer" d="M807.168 266.464c-17.536 10.016-35.648 20.32-54.688 32.96-26.112 15.68-51.136 28.512-75.744 39.232 10.464 15.904 19.456 32.928 25.632 51.232 1.344 4.096 33.632 101.696 33.632 170.112 0 55.776-1.216 72.768-22.144 97.888 13.696 17.44 17.472 31.168 17.472 31.168s-63.328 51.936-219.072 51.936c-155.776 0-217.408-51.936-217.408-51.936s3.808-12.896 16.704-29.536c-22.272-26.016-23.552-42.56-23.552-99.52 0-68.416 32.256-166.016 33.664-170.208 6.144-18.24 15.136-35.264 25.568-51.168-24.768-10.784-50.080-23.776-76.992-40-17.76-11.84-35.872-22.144-53.408-32.16-75.136-42.752-152.832-87.008-152.832-234.464v-21.664l20.096-8.064c84-33.6 255.936-50.368 427.904-50.368s343.904 16.768 427.872 50.368l20.128 8.064v21.664c0 147.456-77.696 191.712-152.832 234.464zM513.856 585.152c69.888 0 117.664 14.080 150.272 31.904 7.68-10.944 7.872-21.632 7.872-57.056 0-57.984-30.048-148.96-30.304-149.792-19.744-58.56-77.952-106.208-129.696-106.208-51.776 0-109.952 47.648-129.632 106.112-0.32 0.928-30.368 91.776-30.368 149.888 0 36.736 0.128 46.912 8.704 58.272 32.96-18.368 81.632-33.12 153.152-33.12zM128.736 54.432c6.24 91.808 52.384 118.048 119.776 156.448 18.496 10.528 37.632 21.408 56 33.696 30.624 18.432 59.456 32.608 87.648 43.36 35.168-29.6 77.696-47.936 119.84-47.936 42.112 0 84.672 18.336 119.84 47.936 28.128-10.752 56.736-24.768 86.4-42.56 19.616-13.088 38.752-23.968 57.248-34.496 67.36-38.368 113.536-64.64 119.776-156.448-164.544-50.752-602.016-50.752-766.528 0zM729.696 890.272l-217.472 69.728-219.008-71.36-68.128-94.144 68.128-94.080c0 0 126.592 85.984 219.008 85.984 92.512 0 217.472-85.984 217.472-85.984l71.36 94.080-71.36 95.776zM513.152 816.256c-60.64 19.136-32.128 53.472-38.976 89.664 17.856 17.6 21.888-8.672 38.976 5.088 17.056-13.76 20.864 12.512 38.688-5.088-6.848-36.16 21.952-70.56-38.688-89.664z" />
<glyph unicode="&#xe90e;" glyph-name="wait" d="M914.080 675.968c-82.496 146.272-236.544 236.032-406.080 236.032-255.84 0-468-208.16-468-464s232-464 456-464v96c-192 0-360.256 165.088-360.256 368 0 202.944 172.832 368 375.744 368 125.92 0 239.392-62.432 306.912-165.632l-73.12-19.584 182.72-182.784 66.976 249.632-80.896-21.664zM756.8 280.288l-182.016 156c0.704 3.808 1.216 7.712 1.216 11.712 0 23.616-12.928 44.032-32 55.136v232.864h-64v-232.864c-19.040-11.104-32-31.456-32-55.136 0-35.328 28.672-64 64-64 7.36 0 14.432 1.504 21.024 3.808l182.144-156.096 41.632 48.576z" />
<glyph unicode="&#xe90f;" glyph-name="warning" d="M946.656 84.64l-389.312 726.72c-24.928 46.56-65.76 46.56-90.656 0l-389.344-726.72c-24.928-46.56-2.144-84.64 50.656-84.64h768c52.8 0 75.584 38.080 50.656 84.64zM576 128c0-17.696-14.304-32-32-32h-64c-17.664 0-32 14.304-32 32v32c0 17.696 14.336 32 32 32h64c17.696 0 32-14.304 32-32v-32zM576 480.864c0-17.6-2.144-46.24-4.736-63.648l-20.8-133.984c-2.624-17.344-19.168-27.232-36.768-27.232h-2.944c-17.6 0-34.176 9.888-36.832 27.264l-21.088 136.16c-2.656 17.376-4.832 43.84-4.832 61.44v63.136c0 17.6 14.4 32 32 32h64c17.6 0 32-14.4 32-32v-63.136z" />
<glyph unicode="&#xe910;" glyph-name="select" d="M370.88 323.072l-239.68 239.68 90.496 90.496 144.32-144.32 242.848 269.888 95.136-85.632zM672 561.984v-273.984h-512v155.36l-96 96v-299.36c0-26.496 21.472-48 48-48h608c26.496 0 48 21.504 48 48v416c0 3.808-0.576 7.488-1.408 11.072l-94.592-105.088zM357.44 608h11.584l86.4 96h-193.984zM181.952 704h-69.952c-26.528 0-48-21.504-48-48v-69.952l117.952 117.952zM768 384l174.048-169.376c12.448-12.448 17.952-8.224 17.952 9.376v448c0 17.6-5.504 21.824-17.952 9.376l-174.048-169.376v-128z" />
<glyph unicode="&#xe911;" glyph-name="state-notready" d="M512 928c-264.672 0-480-215.328-480-480s215.328-480 480-480c264.672 0 480 215.328 480 480s-215.328 480-480 480zM131.328 448c0 209.952 170.752 380.672 380.672 380.672 87.68 0 168.32-30.080 232.704-80.096l-140.576-140.576h-348.128c-17.664 0-32-14.304-32-32v-256c0-17.696 14.336-32 32-32h28.128l-72.704-72.704c-50.016 64.384-80.096 145.024-80.096 232.704zM288 352v192h252.128l-192-192h-60.128zM608 476.128v-124.128h-124.128l124.128 124.128zM512 67.328c-87.68 0-168.288 30.080-232.736 80.096l140.608 140.608h220.128c17.696 0 32 14.304 32 32v88l112.736-105.888c7.808-7.744 15.264-5.12 15.264 5.888v280c0 11.008-7.424 13.632-15.264 5.888l-112.736-105.92v52.128l140.608 140.608c50.016-64.416 80.096-145.024 80.096-232.704-0.032-209.92-170.752-380.704-380.704-380.704z" />
<glyph unicode="&#xe912;" glyph-name="state-ready" d="M512-32c-264.672 0-480 215.328-480 480s215.328 480 480 480c264.672 0 480-215.328 480-480s-215.328-480-480-480zM512 828.672c-209.92 0-380.672-170.752-380.672-380.672s170.752-380.672 380.672-380.672c209.952 0 380.672 170.816 380.672 380.672 0 209.952-170.72 380.672-380.672 380.672zM672 408l112.736-105.888c7.808-7.744 15.264-5.12 15.264 5.888v280c0 11.008-7.424 13.632-15.264 5.888l-112.736-105.888v-80zM640 288h-384c-17.664 0-32 14.304-32 32v256c0 17.696 14.336 32 32 32h384c17.696 0 32-14.304 32-32v-256c0-17.696-14.304-32-32-32zM288 352h320v192h-320v-192z" />
<glyph unicode="&#xe913;" glyph-name="pause" d="M448 160c0-52.8-43.2-96-96-96h-128c-52.8 0-96 43.2-96 96v576c0 52.8 43.2 96 96 96h128c52.8 0 96-43.2 96-96v-576zM896 160c0-52.8-43.2-96-96-96h-128c-52.8 0-96 43.2-96 96v576c0 52.8 43.2 96 96 96h128c52.8 0 96-43.2 96-96v-576z" />
<glyph unicode="&#xe914;" glyph-name="record" d="M512 0c-247.040 0-448 200.96-448 448s200.96 448 448 448 448-200.96 448-448-200.96-448-448-448zM512 832c-211.744 0-384-172.256-384-384s172.256-384 384-384c211.744 0 384 172.256 384 384s-172.256 384-384 384zM736 448c0-123.712-100.288-224-224-224s-224 100.288-224 224c0 123.712 100.288 224 224 224s224-100.288 224-224z" />
<glyph unicode="&#xe915;" glyph-name="edit" d="M672 928h-576v-960h832v704l-256 256zM823.136 672h-151.136v160.352l151.136-160.352zM864 32h-704v832h448v-256h256v-576zM280.194 242.717l248.899 248.899 90.531-90.531-248.899-248.899-90.531 90.531zM257.6 220.128l90.528-90.528-158.4-67.84zM687.591 468.973l-45.286-45.222-90.467 90.595 45.286 45.222 90.467-90.595z" />
<glyph unicode="&#xe916;" glyph-name="view" d="M720 192h-608c-26.528 0-48 21.504-48 48v416c0 26.496 21.472 48 48 48h608c26.496 0 48-21.504 48-48v-416c0-26.496-21.504-48-48-48zM160 288h512v320h-512v-320zM768 384l174.048-169.376c12.448-12.448 17.952-8.224 17.952 9.376v448c0 17.6-5.504 21.824-17.952 9.376l-174.048-169.376v-128z" />
<glyph unicode="&#xe917;" glyph-name="department" d="M673.856 209.6c-14.368 8.224-29.728 16.672-45.312 27.040-21.376 12.832-42.080 23.328-62.304 32.128 8.608 12.992 15.808 27.008 20.864 41.984 1.12 3.328 27.488 83.328 27.488 139.328 0 45.728-1.024 59.616-18.176 80.192 11.264 14.304 14.304 25.536 14.304 25.536s-51.904 42.56-179.456 42.56c-127.584 0-178.112-42.56-178.112-42.56s3.136-10.56 13.696-24.224c-18.24-21.312-19.296-34.816-19.296-81.504 0-56 26.432-136 27.584-139.392 5.056-14.976 12.384-28.832 20.96-41.92-20.288-8.832-41.024-19.488-63.072-32.768-14.528-9.728-29.376-18.144-43.744-26.336-61.6-35.072-125.248-71.328-125.248-192.096v-17.76l16.48-6.592c68.8-27.52 209.664-41.28 350.528-41.28s282.752 13.76 351.488 41.28l17.504 6.592v17.76c0 120.736-64.704 156.992-126.176 192.032zM432.544 470.656c57.248 0 96.384 11.52 123.104 26.144 6.24-8.96 6.432-17.76 6.432-46.752 0-47.488-24.672-122.016-24.832-122.752-16.16-47.936-63.84-87.008-106.24-87.008s-90.048 39.072-106.208 86.944c-0.256 0.736-24.864 75.2-24.864 122.816 0 30.048 0.096 38.368 7.168 47.744 26.976-15.040 66.88-27.136 125.44-27.136zM117.056 35.904c5.12 75.232 42.912 96.704 98.112 128.16 15.168 8.64 30.816 17.536 45.888 27.584 25.088 15.104 48.704 26.688 71.808 35.52 28.8-24.288 63.648-39.328 98.176-39.328s69.344 15.040 98.176 39.328c23.040-8.8 46.496-20.352 70.784-34.912 16.064-10.72 31.712-19.584 46.88-28.256 55.232-31.392 93.024-52.896 98.080-128.16-134.752-41.536-493.12-41.536-627.904 0.064zM609.376 720.64l-178.176 57.12-179.392-58.496-55.84-77.12 55.84-77.024c0 0 103.68 70.4 179.392 70.4 75.776 0 178.176-70.4 178.176-70.4l58.464 77.024-58.464 78.496zM432 659.968c-49.664 15.68-26.336 43.808-31.936 73.44 14.624 14.432 17.92-7.072 31.936 4.192 13.984-11.264 17.088 10.24 31.68-4.192-5.632-29.6 17.952-57.76-31.68-73.44zM789.12 382.688c-12.224 6.912-25.184 14.048-38.4 22.848-18.112 10.976-35.68 19.776-52.736 27.296 7.264 11.040 13.376 22.848 17.696 35.52 0.928 2.848 23.296 70.592 23.296 118.048 0 38.688-0.832 50.464-15.328 67.904 9.472 12.096 12.128 21.632 12.128 21.632s-22.816 18.048-74.4 28.64l46.624-62.624-16.128-21.248c2.528-6.496 2.688-15.2 2.688-34.24 0-40.256-20.864-103.36-20.992-103.968-5.504-16.288-15.328-31.168-27.328-43.328-0.896-19.552-3.872-40.448-7.808-60 9.888 5.088 19.488 11.072 28.352 18.464 19.456-7.456 39.328-17.216 59.968-29.536 13.632-9.088 26.88-16.64 39.68-23.936 46.816-26.656 78.848-44.8 83.168-108.64-29.984-9.248-73.12-16-122.272-20.384 16.832-10.912 33.504-23.392 48.448-39.008 42.496 5.696 78.976 13.344 103.616 23.264l16.832 5.568v15.040c-0.192 102.24-54.944 132.928-107.104 162.688zM431.136 811.328l197.76-63.328 12.064-16.16c48.864-17.376 93.568-47.968 93.568-47.968l49.504 65.28-49.536 66.528-150.976 48.32-152-49.568-2.784-3.872 2.4 0.768zM557.152 826.432c12.384 12.256 15.2-6.016 27.072 3.552 11.84-9.568 14.496 8.672 26.88-3.552-4.736-25.056 15.264-48.896-26.88-62.176-42.112 13.28-22.304 37.12-27.072 62.176zM877.728 551.328c-9.312 5.312-19.328 10.88-29.536 17.632-13.984 8.416-27.456 15.232-40.672 20.928 5.6 8.512 10.304 17.632 13.632 27.328 0.736 2.208 17.952 54.336 17.952 90.912 0 29.824-0.672 38.88-11.872 52.32 7.328 9.312 9.376 16.672 9.376 16.672s-14.976 11.84-48.416 20.064l35.872-48.224-19.456-25.696c0.192-3.936 0.256-8.544 0.256-15.136 0-30.976-16.064-79.552-16.128-80.032-3.744-11.040-10.080-21.28-17.952-30.016 0.032-3.808 0.128-7.392 0.128-11.648 0-11.040-1.12-22.784-2.752-34.528 5.28 3.2 10.4 6.848 15.264 10.912 15.072-5.76 30.304-13.248 46.144-22.752 10.496-7.008 20.672-12.768 30.592-18.432 36-20.512 60.672-34.528 64-83.52-31.040-9.632-80.416-15.712-134.976-18.56 3.936-2.208 7.872-4.544 11.584-6.624l4.128-2.304c11.616-6.624 23.808-13.632 35.744-21.632 44.8 4.512 83.52 11.488 107.936 21.248l11.392 4.32v11.552c0.064 78.688-42.048 102.336-82.24 125.216zM699.968 860.32c-3.264 9.44 1.44 20.8-0.8 32.64 9.568 9.44 11.712-4.64 20.832 2.752 9.12-7.328 11.168 6.688 20.672-2.752-3.104-16.384 7.296-32.064-9.248-42.688l22.624-7.264 20.192-27.072c33.248-13.568 61.504-32.8 61.504-32.8l38.112 50.24-38.112 51.2-116.192 37.248-104.864-34.112 85.28-27.392z" />
<glyph unicode="&#xe918;" glyph-name="action" d="M545.856 292.288l169.824 169.792c18.752 18.752 18.688 49.088 0 67.84-18.816 18.784-49.184 18.784-67.936 0l-135.744-135.712-135.776 135.712c-18.752 18.784-49.12 18.784-67.84 0-18.752-18.752-18.752-49.088 0-67.84l169.664-169.792c18.656-18.688 49.056-18.688 67.808 0z" />
<glyph unicode="&#xe919;" glyph-name="take-control" d="M511.488-2.048l-10.944 4c-399.968 145.6-369.792 704-368.288 727.712l1.888 29.952 30.016 0.032c1.984 0 199.936 1.44 328.096 97.92l19.2 14.432 19.232-14.368c129.152-96.544 327.168-97.984 329.152-97.984l30.016-0.032 1.92-29.952c1.472-23.712 31.68-582.080-369.344-727.744l-10.944-3.968zM195.488 696.896c-0.288-111.392 19.744-513.344 316.032-630.688 297.152 117.344 317.28 519.296 317.024 630.656-62.24 4.064-204.512 21.504-316.96 95.968-111.84-74.432-253.888-91.872-316.096-95.936zM734.4 619.872c0 0-133.088 1.152-222.4 67.616v-239.488h207.136c20.128 96 15.264 171.872 15.264 171.872zM512 448h-207.168c22.656-96 77.248-225.568 206.848-272.8 0.096 0.032 0.192 1.216 0.32 1.248v271.552zM660.928 448c-15.52-64-54.048-163.936-148.928-198.56v-72.992c129.696 47.328 184.384 175.552 207.136 271.552h-58.208zM353.248 565.856c0 0 95.264 0.576 158.56 48.224 0.064-0.032 0.128 0.48 0.192 0.416v72.96c-0.128 0.064-0.224 0.16-0.32 0.224-88.64-66.72-222.016-67.872-222.016-67.872s-4.896-75.808 15.168-171.808h58.304c-13.024 64-9.888 117.856-9.888 117.856z" />
<glyph unicode="&#xe91a;" glyph-name="send" d="M966.24 805.12l-930.24-282.304c-30.208-9.152-39.968-23.744-9.6-32.384l293.6-86.784v-270.464c0-31.552 28.096-39.136 50.432-16.832l219.392 214.432 237.408-67.072c30.368-8.672 62.4 9.344 69.664 40.096l110.4 462.112c7.296 30.752-10.848 48.352-41.056 39.2zM480 352l-128-192 32 224 586.944 383.072-490.944-415.072z" />
<glyph unicode="&#xe91b;" glyph-name="refresh" d="M421.088 750.56c118.144 39.616 246.784 10.688 336.48-73.312l-105.664-63.872 240.16-59.2 59.328 240.16-109.312-66.016c-115.488 122.528-291.008 167.2-451.488 113.248-176.288-59.168-294.688-217.568-294.688-409.568h96c0 160 92.096 272.576 229.184 318.56zM862.912 436.192c-11.232-133.856-100.704-247.872-228.032-290.592-118.176-39.744-246.784-10.688-336.448 73.312l105.664 63.84-240.16 59.232-59.296-240.16 109.504 66.144c82.912-87.872 196.384-135.968 313.344-135.968 46.016 0 92.608 7.328 137.952 22.592 163.616 54.912 278.688 201.536 293.152 373.536l-95.68 8.064zM452.64 318.304c-15.776-7.872-36.64 0.096-36.64 17.696v224c0 17.6 20.864 25.568 36.64 17.696l234.752-115.36c15.744-7.872 13.76-20.736-2.016-28.64l-232.736-115.392z" />
<glyph unicode="&#xe91c;" glyph-name="log-out" d="M551.936 799.712l-159.392 51.104-160.544-52.32-49.952-69.024 49.952-68.896c0 0 92.768 63.008 160.544 63.008 67.808 0 159.392-63.008 159.392-63.008l52.32 68.896-52.32 70.24zM393.216 745.44c-44.448 14.016-23.552 39.264-28.576 65.76 13.056 12.864 16.032-6.304 28.576 3.712 12.512-10.016 15.296 9.152 28.352-3.712-4.992-26.528 16.096-51.776-28.352-65.76zM392.448 880.864l176.96-56.672 10.784-14.432c43.744-15.552 83.712-42.944 83.712-42.944l44.32 58.4-44.32 59.52-135.104 43.264-136-44.352-2.496-3.456 2.144 0.672zM505.216 894.4c11.072 10.944 13.6-5.344 24.224 3.2 10.592-8.544 12.96 7.744 24.032-3.2-4.256-22.432 13.664-43.776-24.032-55.648-37.664 11.872-19.968 33.216-24.224 55.648zM291.904 156.8c1.472 1.728 3.296 3.168 4.8 4.8-74.88 3.84-142.656 12.256-185.248 25.44 4.576 67.328 38.4 86.496 87.776 114.624 13.568 7.712 27.584 15.68 41.056 24.704 22.464 13.504 43.584 23.84 64.256 31.776 25.792-21.696 56.928-35.2 87.84-35.2 30.88 0 62.048 13.504 87.84 35.2 20.608-7.872 41.6-18.176 63.328-31.264 14.368-9.6 28.384-17.568 41.952-25.28 12.256-6.976 23.488-13.376 33.632-20.128 7.68 0.416 15.008 1.152 22.88 1.376v44.672c-8.64 5.12-17.248 10.016-25.696 14.88-12.8 7.328-29.92 14.912-43.808 24.16-19.2 11.52-39.392 20.896-57.44 28.704 7.648 11.648 13.28 24.192 17.824 37.568 0.992 3.040 24.192 74.56 24.192 124.672 0 40.864-1.12 53.344-16.512 71.712 10.048 12.768 12.704 22.848 12.704 22.848s-46.496 38.048-160.64 38.048-159.392-38.048-159.392-38.048 2.784-9.44 12.224-21.632c-16.32-19.136-17.28-31.2-17.28-72.928 0-50.112 23.648-121.696 24.672-124.736 4.512-13.376 11.104-25.856 18.752-37.504-18.144-7.872-36.704-17.44-56.448-29.312-12.992-8.672-26.272-16.256-39.136-23.552-55.104-31.264-112.032-63.712-112.032-171.776v-15.872l14.72-5.952c40.192-16.064 108-26.816 185.184-32.384 7.488 13.472 16.576 27.008 28 40.384zM281.504 600.352c24.128-13.472 59.808-24.288 112.224-24.288 51.2 0 86.208 10.336 110.144 23.36 5.632-8 5.76-15.872 5.76-41.856 0-42.464-22.016-109.152-22.176-109.824-14.496-42.912-57.152-77.856-95.040-77.856-37.952 0-80.576 34.944-95.040 77.824-0.224 0.672-22.24 67.264-22.24 109.856-0.032 27.008 0.064 34.432 6.368 42.784zM656.8 484.224c12.192-8.128 24-14.88 35.456-21.408 36.16-20.64 62.368-35.616 71.36-76.096l44.704-34.816c-0.096 91.392-48.992 118.88-95.616 145.44-10.944 6.144-22.56 12.672-34.368 20.48-16.256 9.76-31.936 17.696-47.264 24.384 6.496 9.888 12 20.448 15.808 31.808 0.832 2.496 20.832 63.2 20.832 105.664 0 34.592-0.768 45.152-13.792 60.704 8.512 10.88 10.88 19.328 10.88 19.328s-20.384 16.192-66.56 25.6l41.696-56-14.4-19.072c2.24-5.824 2.4-13.568 2.4-30.624 0-36-18.688-92.576-18.816-93.024-4.896-14.528-13.76-27.872-24.512-38.816-0.768-17.536-3.392-36.16-7.008-53.728 8.832 4.64 17.504 9.984 25.376 16.608 17.664-6.688 35.36-15.392 53.824-26.432zM990.912 168.448l-318.016 247.552v-164.576c-450.016 0-407.872-269.888-407.872-269.888 0.896 0.992 84.288 95.968 407.872 102.464v-148l318.016 232.448z" />
<glyph unicode="&#xe91d;" glyph-name="sort" d="M545.888 753.984l169.824-169.792c18.752-18.752 18.688-49.12 0-67.872-18.816-18.752-49.184-18.752-67.936 0l-135.776 135.744-135.776-135.744c-18.752-18.752-49.12-18.752-67.84 0-18.752 18.752-18.752 49.12 0 67.872l169.664 169.792c18.656 18.688 49.088 18.688 67.84 0zM545.888 141.984l169.824 169.824c18.752 18.752 18.688 49.12 0 67.872-18.816 18.752-49.184 18.752-67.936 0l-135.776-135.744-135.776 135.744c-18.752 18.752-49.12 18.752-67.84 0-18.752-18.752-18.752-49.12 0-67.872l169.664-169.824c18.656-18.656 49.088-18.656 67.84 0z" />
<glyph unicode="&#xe91e;" glyph-name="sort-down" d="M545.888 292.288l169.824 169.792c18.752 18.752 18.688 49.12 0 67.872-18.816 18.752-49.184 18.752-67.936 0l-135.776-135.776-135.776 135.744c-18.752 18.752-49.12 18.752-67.84 0-18.752-18.752-18.752-49.12 0-67.872l169.664-169.792c18.656-18.656 49.088-18.656 67.84 0.032z" />
<glyph unicode="&#xe91f;" glyph-name="sort-up" d="M545.888 603.712l169.824-169.792c18.752-18.752 18.688-49.12 0-67.872-18.816-18.752-49.184-18.752-67.936 0l-135.776 135.776-135.776-135.744c-18.752-18.752-49.12-18.752-67.84 0-18.752 18.752-18.752 49.12 0 67.872l169.664 169.792c18.656 18.656 49.088 18.656 67.84-0.032z" />
<glyph unicode="&#xe920;" glyph-name="file-video" d="M672 928h-576v-960h832v704l-256 256zM823.136 672h-151.136v160.352l151.136-160.352zM864 32h-704v832h448v-256h256v-576zM718.24 389.376l-46.24-69.376h-32v32c0 35.328-28.672 64-64 64h-288c-35.296 0-64-28.672-64-64v-192c0-35.328 28.704-64 64-64h288c35.328 0 64 28.672 64 64v32h32l46.24-69.376c9.76-14.656 17.76-12.224 17.76 5.376v256c0 17.6-8 20.032-17.76 5.376zM576 160h-288v192h288v-192z" />
<glyph unicode="&#xe921;" glyph-name="search" d="M672 832h-32l-96 96h-448v-864h128v-96h704v608l-256 256zM823.136 576h-151.136v160.352l151.136-160.352zM544.32 832h-0.32v0.352l0.32-0.352zM160 128v736h320v-32h-256v-704h-64zM864 32h-576v736h320v-256h256v-480zM751.136 125.376l-137.888 138.304c41.184 62.016 34.528 146.656-20.032 201.344-62.272 62.464-163.776 62.624-226.272 0.352-62.464-62.272-62.624-163.84-0.352-226.272 54.56-54.688 139.2-61.632 201.344-20.64l137.856-138.304c12.512-12.512 32.736-12.576 45.248-0.064 12.512 12.544 12.544 32.768 0.096 45.28zM411.936 284.32c-37.376 37.504-37.28 98.368 0.192 135.744s98.4 37.28 135.776-0.192 37.28-98.368-0.192-135.744c-37.504-37.376-98.4-37.312-135.776 0.192z" />
<glyph unicode="&#xe922;" glyph-name="backward" d="M182.624 470.624l306.752 306.752c12.448 12.448 22.624 8.224 22.624-9.376v-288l297.376 297.376c12.448 12.448 22.624 8.224 22.624-9.376v-640c0-17.6-10.176-21.824-22.624-9.376l-297.376 297.376v-288c0-17.6-10.176-21.824-22.624-9.376l-306.752 306.752c-12.448 12.448-12.448 32.8 0 45.248z" />
<glyph unicode="&#xe923;" glyph-name="forward" d="M841.376 470.624l-306.752 306.752c-12.448 12.448-22.624 8.224-22.624-9.376v-288l-297.376 297.376c-12.448 12.448-22.624 8.224-22.624-9.376v-640c0-17.6 10.176-21.824 22.624-9.376l297.376 297.376v-288c0-17.6 10.176-21.824 22.624-9.376l306.752 306.752c12.448 12.448 12.448 32.8 0 45.248z" />
<glyph unicode="&#xe924;" glyph-name="play" d="M192 736c0 52.8 37.056 73.792 82.304 46.624l475.36-285.216c45.28-27.168 45.28-71.616 0-98.784l-475.36-285.216c-45.248-27.2-82.304-6.208-82.304 46.592v576z" />
<glyph unicode="&#xe925;" glyph-name="info" d="M512 0c-247.040 0-448 200.928-448 448s200.96 448 448 448c247.072 0 448-200.928 448-448s-200.928-448-448-448zM512 832c-211.744 0-384-172.256-384-384s172.256-384 384-384 384 172.256 384 384-172.256 384-384 384zM567.104 554.432v-312.608c0-27.84 3.232-45.632 9.728-53.376 6.432-7.712 19.104-12.16 37.952-13.28v-15.168h-213.024v15.2c17.44 0.576 30.368 5.632 38.816 15.2 5.632 6.464 8.448 23.616 8.448 51.456v230.336c0 27.84-3.264 45.632-9.728 53.376-6.464 7.712-18.976 12.16-37.536 13.28v15.584h165.344zM508.032 745.568c18.272 0 33.76-6.4 46.4-19.2 12.672-12.8 19.008-28.224 19.008-46.176 0-18.016-6.4-33.344-19.232-46.016-12.768-12.672-28.192-19.008-46.176-19.008s-33.344 6.336-45.984 19.008c-12.672 12.672-19.008 27.968-19.008 46.016 0 17.984 6.304 33.376 19.008 46.176 12.64 12.8 27.968 19.2 45.984 19.2z" />
<glyph unicode="&#xe926;" glyph-name="select-room" d="M752 832h-512c-26.528 0-48-21.504-48-48v-341.376l58.656-58.624h92.928l86.4 96h-141.984v256h416v-256h-27.936l54.304-48.864-42.432-47.136h64.064c26.528 0 48 21.504 48 48v352c0 26.496-21.472 48-48 48zM306.88 56.256l-239.68 239.68 90.496 90.496 144.32-144.32 242.848 269.888 95.136-85.632zM792 552l152.32-148.192c10.88-10.88 15.68-7.232 15.68 8.192v392c0 15.392-4.8 19.072-15.68 8.192l-152.32-148.192v-112z" />
<glyph unicode="&#xe927;" glyph-name="select-operation" d="M498.080 32h-338.080v832h448v-256h256v-129.6l23.776 23.776 40.224-40.256v210.048l-256 256h-576v-960h466.048l-63.968 64.032zM672 832.352l151.136-160.352h-151.136v160.352zM992 160v96h-54.304c-4.544 17.568-11.424 34.112-20.448 49.376l38.368 38.368-67.872 67.904-38.4-38.4c-15.264 9.024-31.808 15.936-49.376 20.48v54.272h-96v-54.272c-17.568-4.544-34.112-11.424-49.376-20.48l-38.4 38.4-67.872-67.904 38.368-38.368c-8.992-15.264-15.904-31.808-20.448-49.376h-54.304v-96h54.304c4.544-17.568 11.424-34.112 20.448-49.376l-38.368-38.368 67.872-67.904 38.4 38.4c15.264-9.024 31.808-15.936 49.376-20.48v-54.272h96v54.272c17.568 4.544 34.112 11.424 49.376 20.48l38.4-38.4 67.872 67.904-38.368 38.368c8.992 15.264 15.904 31.808 20.448 49.376h54.304zM752 144c-35.328 0-64 28.672-64 64s28.672 64 64 64 64-28.672 64-64-28.672-64-64-64z" />
<glyph unicode="&#xe928;" glyph-name="file-upload" d="M576 32h-416v832h448v-256h256v-173.664l64-63.968v301.632l-256 256h-576v-960h480v64zM672 832.352l151.136-160.352h-151.136v160.352zM864 192v-224h-224v224h-151.904l263.904 263.808 263.904-263.808z" />
<glyph unicode="&#xe929;" glyph-name="file-play" d="M576.032 32h-416.032v832h448v-256h256v-263.008l64-38.4v365.408l-256 256h-576v-960h502.112c-13.632 16.736-21.984 38.848-22.080 64zM672 832.352l151.136-160.352h-151.136v160.352zM640 351.552c0 29.248 20.512 40.832 45.6 25.856l263.36-158.016c25.088-15.136 25.088-39.584 0-54.72l-263.36-158.048c-25.088-15.072-45.6-3.392-45.6 25.856v319.072z" />
<glyph unicode="&#xe92a;" glyph-name="file-history" d="M523.36 339.008c44.256 78.496 126.752 126.496 217.76 126.496 137.12 0 250.88-111.488 250.88-248.736s-124.384-248.736-244.48-248.736v51.488c102.88 0 193.088 88.512 193.088 197.248s-92.64 197.248-201.44 197.248c-67.52 0-128.32-33.504-164.576-88.736l39.264-10.496-98.016-98.016-35.872 133.76 43.392-11.52zM512 32h-352v832h448v-256h256v-103.264c22.912-9.696 44.224-22.272 64-36.8v204.064l-256 256h-576v-960h416v64zM672 832.352l151.136-160.352h-151.136v160.352zM864.352 126.912l-97.664 83.584c0.448 2.016 0.672 4 0.672 6.24 0 12.736-6.976 23.68-17.184 29.6v124.736h-34.304v-124.736c-10.208-5.92-17.12-16.832-17.12-29.6 0-18.88 15.36-34.24 34.368-34.24 3.936 0 7.744 0.704 11.264 2.016l97.632-83.68 22.336 26.080z" />
<glyph unicode="&#xe92b;" glyph-name="file-download" d="M621.632 32h-461.632v832h448v-256h256v-64h64v128l-256 256h-576v-960h589.664l-64.032 64zM672 832.352l151.136-160.352h-151.136v160.352zM864 256v224h-224v-224h-151.904l263.904-263.808 263.904 263.808z" />
<glyph unicode="&#xe92c;" glyph-name="file-cancel" d="M619.659 400.643l-248.899-248.899-90.554 90.554 248.899 248.899 90.554-90.554zM257.6 220.128l90.528-90.528-158.4-67.84zM551.074 514.736l45.286 45.222 90.467-90.595-45.286-45.222-90.467 90.595zM549.472 13.248l18.752 18.752h-408.224v832h448v-256h256v-280.256l64 64v280.256l-256 256h-576v-960h498.72l-45.248 45.248zM672 832.352l151.136-160.352h-151.136v160.352zM928 301.248l-121.376-121.376-121.376 121.376-45.248-45.248 121.376-121.376-121.376-121.376 45.248-45.248 121.376 121.376 121.376-121.376 45.248 45.248-121.376 121.376 121.376 121.376z" />
<glyph unicode="&#xe92d;" glyph-name="reporter" d="M807.2 258.496c-17.568 10.048-35.68 20.32-54.688 32.992-26.112 15.68-51.168 28.512-75.744 39.2 10.432 15.936 19.424 32.928 25.632 51.264 1.024 3.168 20.128 60.96 29.056 118.624 0.352 1.184 1.056 2.208 1.28 3.456 5.184 30.4 13.344 54.176 21.28 77.216 10.72 31.104 21.824 63.264 22.496 105.792 1.216 74.56-47.52 110.112-97.376 119.68-4.128 10.176-11.104 21.824-22.688 33.44-32.512 32.544-122.272 43.072-160.672 43.072l-22.816 0.16c-33.76 0-112.768 0-173.184-70.784-80.512-94.144-21.632-271.136-7.584-309.28 8.736-58.528 28.416-118.176 29.504-121.44 6.144-18.24 15.136-35.328 25.568-51.2-24.768-10.816-50.080-23.808-76.992-40-17.76-11.872-35.872-22.112-53.408-32.192-75.136-42.752-152.832-87.008-152.832-234.432v-21.696l20.096-8.064c84-33.568 255.936-50.368 427.904-50.368s343.904 16.8 427.872 50.368l20.128 8.064v21.696c-0.032 147.424-77.728 191.68-152.832 234.432zM393.312 614.88c10.56-2.656 24.16-8.832 38.56-15.36 26.848-12.224 57.312-26.016 88.8-26.88 0.288 0 3.328-0.032 3.616-0.032 0 0 0 0 0 0 39.424 0 73.152 17.28 97.76 29.92 5.664 2.912 10.88 5.664 15.648 7.808 10.016-5.984 29.184-31.136 31.168-95.712-7.68-53.088-27.008-111.648-27.2-112.352-19.744-58.56-77.952-106.176-129.696-106.176-51.776 0-109.952 47.616-129.632 106.112-0.256 0.704-18.176 55.008-26.336 106.432 0 0.096 0.032 0.16 0.032 0.224 0.672 38.144 6.688 87.328 14.816 103.456 3.136 1.984 12.416 5.056 22.464 2.56zM128.736 46.496c6.24 91.808 52.384 118.048 119.776 156.448 18.496 10.496 37.632 21.376 56 33.696 30.624 18.432 59.456 32.64 87.648 43.36 35.168-29.632 77.696-47.936 119.84-47.936 42.112 0 84.672 18.304 119.84 47.936 28.128-10.752 56.704-24.736 86.4-42.56 19.616-13.12 38.752-24 57.248-34.496 67.328-38.368 113.536-64.64 119.744-156.448-164.512-50.752-601.984-50.752-766.496 0z" />
<glyph unicode="&#xe92e;" glyph-name="file-play-pe" d="M480 32h-352v832h448v-256h256v-103.296c22.912-9.696 44.224-22.24 64-36.768v204.064l-256 256h-576v-960h416v64zM640 832.352l151.136-160.352h-151.136v160.352zM700.768-22.72c-132.032 0-239.424 107.424-239.424 239.456s107.392 239.456 239.424 239.456 239.456-107.424 239.456-239.456-107.424-239.456-239.456-239.456zM700.768 424.224c-114.368 0-207.424-93.056-207.424-207.456s93.056-207.456 207.424-207.456c114.4 0 207.456 93.056 207.456 207.456s-93.024 207.456-207.456 207.456zM735.040 216.736c0-18.928-15.344-34.272-34.272-34.272s-34.272 15.344-34.272 34.272c0 18.928 15.344 34.272 34.272 34.272s34.272-15.344 34.272-34.272zM636.768 216.736c0 11.904 3.456 22.912 9.12 32.48l-93.728 55.424c-15.328-25.856-24.736-55.648-24.736-87.904s9.408-62.080 24.736-87.968l93.76 55.456c-5.664 9.6-9.152 20.608-9.152 32.512zM849.408 128.832l-93.76 55.424c-11.168-18.816-31.424-31.52-54.88-31.52-0.032 0-0.064 0-0.096 0l-0.192-109.312c0.096 0 0.192-0.032 0.288-0.032 63.488 0 118.464 34.496 148.64 85.44zM701.056 390.048l-0.192-109.344c23.392 0 43.648-12.736 54.816-31.52l93.728 55.424c-30.112 50.912-84.96 85.376-148.352 85.44z" />
<glyph unicode="&#xe92f;" glyph-name="go-to" d="M720 928h-624v-960h832v752l-208 208zM871.136 672h-199.136v208.352l199.136-208.352zM864 32h-704v832h448v-256h256v-576zM736 112l-176 176 176 176v-352zM224 112l176 176-176 176v-352zM448 608h64v-512h-64v512z" />
<glyph unicode="&#xe930;" glyph-name="time-shift" d="M221.184 392.064l148.96 127.68c-0.608 3.136 9.344 6.304 9.344 9.568 0 19.328 4.544 36.032 36.544 45.12v193.568h32v-193.536c0-9.088 26.048-25.792 26.048-45.12 0-28.928-23.52-52.384-52.448-52.384-6.080 0-11.872 1.248-17.248 3.136l-149.12-127.776-34.080 39.744zM512 469.472c0 41.728 29.312 58.336 65.056 36.832l375.68-225.408c35.744-21.472 35.744-56.576 0-78.016l-375.68-225.44c-35.744-21.504-65.056-4.896-65.056 36.8v455.232zM268.672 791.52c77.024 47.808 170.592 59.744 258.56 30.784 78.24-25.792 141.792-80.48 178.912-154.048 28.832-57.216 38.784-120.48 29.76-182.624l58.784-35.264c18.208 83.264 7.488 169.568-31.392 246.688-44.8 88.832-121.504 154.88-216 186.016-114.336 37.696-236.416 17.92-333.056-51.424l-78.4 57.856-28.512-253.664 233.952 102.080-72.608 53.6zM448 221.376c-38.048-2.112-76.544 2.656-113.824 14.976-42.88 14.080-81.216 36.736-113.952 67.328-25.984 24.288-47.456 52.704-63.84 84.512-16.672 32.448-27.424 67.2-31.936 103.264l-63.488-7.872c5.408-43.584 18.368-85.536 38.528-124.704 19.744-38.336 45.664-72.672 77.056-101.952 39.552-36.928 85.856-64.32 137.6-81.376 38.304-12.64 77.696-18.88 116.896-18.88 5.664 0 11.296 0.704 16.96 0.992v63.712z" />
<glyph unicode="&#xe931;" glyph-name="user-edit" d="M864 960c88.364 0 160-71.634 160-160 0-36.020-11.91-69.258-32-96l-64-64-224 224 64 64c26.742 20.090 59.978 32 96 32zM64 224l-64-288 288 64 592 592-224 224-592-592zM715.578 596.422l-448-448-55.156 55.156 448 448 55.156-55.156z" />
<glyph unicode="&#xe932;" glyph-name="subst-append-file" d="M928-64h-384c-52.928 0-96 43.072-96 96v384c0 52.928 43.072 96 96 96h384c52.928 0 96-43.072 96-96v-384c0-52.928-43.072-96-96-96zM544 448c-17.632 0-32-14.336-32-32v-384c0-17.664 14.368-32 32-32h384c17.632 0 32 14.336 32 32v384c0 17.664-14.368 32-32 32h-384zM928 256h-160v160h-64v-160h-160v-64h160v-160h64v160h160zM416 288h-313.28c-21.344 0-38.72 17.376-38.72 38.752v530.496c0 21.376 17.376 38.752 38.72 38.752h530.528c21.344 0 38.72-17.376 38.72-38.752v-313.248h64v313.248c0 56.672-46.080 102.752-102.72 102.752h-530.528c-56.64 0-102.72-46.080-102.72-102.752v-530.496c0-56.672 46.080-102.752 102.72-102.752h313.28v64zM262.592 404.704v-52.704h153.408v192h4.704v203.296c131.776 0 158.112-105.44 158.112-105.44v158.144h-421.632v-158.144c0 0 26.336 105.44 158.080 105.44v0-342.56h-52.672z" />
<glyph unicode="&#xe933;" glyph-name="predef-reset-all" d="M928-64h-576c-52.928 0-96 43.072-96 96v576c0 52.928 43.072 96 96 96h576c52.928 0 96-43.072 96-96v-576c0-52.928-43.072-96-96-96zM352 640c-17.632 0-32-14.368-32-32v-576c0-17.664 14.368-32 32-32h576c17.664 0 32 14.336 32 32v576c0 17.632-14.336 32-32 32h-576zM96 256c-17.632 0-32 14.336-32 32v576c0 17.632 14.368 32 32 32h576c17.664 0 32-14.368 32-32h64c0 52.928-43.072 96-96 96h-576c-52.928 0-96-43.072-96-96v-576c0-52.928 43.072-96 96-96v64zM224 128c-17.632 0-32 14.336-32 32v576c0 17.632 14.368 32 32 32h576c17.664 0 32-14.368 32-32h64c0 52.928-43.072 96-96 96h-576c-52.928 0-96-43.072-96-96v-576c0-52.928 43.072-96 96-96v64zM644.352 527.968c-54.432-0.864-105.792-22.048-145.152-59.488l-51.296 50.688-19.456-168.128 169.888 19.488-48.736 48.16c26.208 24.224 60.032 37.952 95.904 38.528 79.712 1.6 146.112-62.72 147.424-142.72 0.64-38.752-13.888-75.36-40.832-103.264-26.976-27.84-63.136-43.552-101.888-44.16-41.92-0.544-81.76 16.672-109.792 47.552l-52.384-47.616c40.96-45.088 99.040-70.752 159.84-70.752 1.152 0 2.336 0 3.456 0.032 57.664 0.896 111.488 24.288 151.616 65.728 40.096 41.408 61.664 95.968 60.736 153.6-1.92 119.008-100.736 214.432-219.328 212.352zM700.96 314.784c0-27.853-22.579-50.432-50.432-50.432s-50.432 22.579-50.432 50.432c0 27.853 22.579 50.432 50.432 50.432s50.432-22.579 50.432-50.432z" />
<glyph unicode="&#xe934;" glyph-name="predef-mark-used" d="M928-64h-576c-52.928 0-96 43.072-96 96v576c0 52.928 43.072 96 96 96h576c52.928 0 96-43.072 96-96v-576c0-52.928-43.072-96-96-96zM352 640c-17.632 0-32-14.368-32-32v-576c0-17.664 14.368-32 32-32h576c17.664 0 32 14.336 32 32v576c0 17.632-14.336 32-32 32h-576zM96 256c-17.632 0-32 14.336-32 32v576c0 17.632 14.368 32 32 32h576c17.664 0 32-14.368 32-32h64c0 52.928-43.072 96-96 96h-576c-52.928 0-96-43.072-96-96v-576c0-52.928 43.072-96 96-96v64zM224 128c-17.632 0-32 14.336-32 32v576c0 17.632 14.368 32 32 32h576c17.664 0 32-14.368 32-32h64c0 52.928-43.072 96-96 96h-576c-52.928 0-96-43.072-96-96v-576c0-52.928 43.072-96 96-96v64zM931.808 480.064l-71.616 63.936-266.528-298.688-144.096 141.024-67.136-68.608 215.904-211.36z" />
<glyph unicode="&#xe935;" glyph-name="predef" d="M799.936 478.4c-42.304 42.304-98.528 65.6-158.336 65.6 0 0-0.032 0-0.064 0-76.096-0.032-147.296-39.584-188.288-103.424l-81.664 24.672 77.984-145.312 145.344 77.92-77.088 23.296c30.176 36.704 75.616 58.88 123.744 58.912 0 0 0.032 0 0.064 0 42.688 0 82.88-16.64 113.056-46.848 30.24-30.208 46.88-70.4 46.88-113.12 0.032-88.224-71.744-160-160-160.064l0.064-64c123.488 0.064 223.968 100.608 223.936 224.064 0 59.776-23.328 116.032-65.632 158.304zM928-64h-576c-52.928 0-96 43.072-96 96v576c0 52.928 43.072 96 96 96h576c52.928 0 96-43.072 96-96v-576c0-52.928-43.072-96-96-96zM352 640c-17.632 0-32-14.368-32-32v-576c0-17.664 14.368-32 32-32h576c17.664 0 32 14.336 32 32v576c0 17.632-14.336 32-32 32h-576zM96 256c-17.632 0-32 14.336-32 32v576c0 17.632 14.368 32 32 32h576c17.664 0 32-14.368 32-32h64c0 52.928-43.072 96-96 96h-576c-52.928 0-96-43.072-96-96v-576c0-52.928 43.072-96 96-96v64zM224 128c-17.632 0-32 14.336-32 32v576c0 17.632 14.368 32 32 32h576c17.664 0 32-14.368 32-32h64c0 52.928-43.072 96-96 96h-576c-52.928 0-96-43.072-96-96v-576c0-52.928 43.072-96 96-96v64z" />
<glyph unicode="&#xe936;" glyph-name="predef-mark-unused" d="M739.808 437.696l-71.616 63.936-266.528-298.688-144.096 141.024-67.136-68.64 215.904-211.328zM736 640h-192l128-64h64c17.664 0 32-14.368 32-32v-512c0-17.664-14.336-32-32-32h-576c-17.632 0-32 14.336-32 32v512c0 17.632 14.368 32 32 32h48l-48 64c-52.928 0-96-43.072-96-96v-512c0-52.928 43.072-96 96-96h576c52.928 0 96 43.072 96 96v512c0 52.928-43.072 96-96 96zM932.352 859.104c-210.56 39.456-424.416-54.112-539.2-233.504l-152.32 59.904 109.792-251.968 252 109.696-148.8 58.528c102.272 150.624 285.792 228.32 466.784 194.432 36.096-6.752 70.624-18.080 103.392-32.704v69.44c-29.472 11.264-60 20.256-91.648 26.176z" />
<glyph unicode="&#xe937;" glyph-name="subst-change-order" d="M928-64h-832c-52.928 0-96 43.072-96 96v832c0 52.928 43.072 96 96 96h832c52.928 0 96-43.072 96-96v-832c0-52.928-43.072-96-96-96zM96 896c-17.632 0-32-14.336-32-32v-832c0-17.664 14.368-32 32-32h832c17.632 0 32 14.336 32 32v832c0 17.664-14.368 32-32 32h-832zM542.496 577.568l-190.496 190.432-190.496-190.432h158.496v-449.568h64v449.568zM704 318.432v449.568h-64v-449.568h-158.496l190.496-190.432 190.496 190.432z" />
<glyph unicode="&#xe938;" glyph-name="subst" d="M928-64h-832c-52.928 0-96 43.072-96 96v832c0 52.928 43.072 96 96 96h832c52.928 0 96-43.072 96-96v-832c0-52.928-43.072-96-96-96zM96 896c-17.632 0-32-14.336-32-32v-832c0-17.664 14.368-32 32-32h832c17.632 0 32 14.336 32 32v832c0 17.664-14.368 32-32 32h-832zM224.928 737.984v-215.296c0 0 35.904 143.52 215.296 143.52v0-466.528h-72.224v-71.712h288v71.712h-72.224v466.56c179.392 0 215.296-143.52 215.296-143.52v215.296h-574.144z" />
<glyph unicode="&#xe939;" glyph-name="subst-new" d="M960-64v736l-288 288h-608v-1024h896zM128 0v896h480v-288h288v-608h-768zM672 864l192-192h-192v192zM301.184 544v-158.112c0 0 26.368 105.408 158.112 105.408v0-342.56h-52.704v-52.704h210.816v52.704h-52.704v342.56c131.776 0 158.112-105.408 158.112-105.408v158.112h-421.632z" />
<glyph unicode="&#xe93a;" glyph-name="subst-clone" d="M928-64h-704c-52.928 0-96 43.072-96 96v704c0 52.928 43.072 96 96 96h704c52.928 0 96-43.072 96-96v-704c0-52.928-43.072-96-96-96zM224 768c-17.632 0-32-14.336-32-32v-704c0-17.664 14.368-32 32-32h704c17.632 0 32 14.336 32 32v704c0 17.664-14.368 32-32 32h-704zM96 128c-17.632 0-32 14.336-32 32v704c0 17.664 14.368 32 32 32h704c17.632 0 32-14.336 32-32h64c0 52.928-43.072 96-96 96h-704c-52.928 0-96-43.072-96-96v-704c0-52.928 43.072-96 96-96v64zM320 640v-192c0 0 32 128 192 128v0-416h-64v-64h256v64h-64v416c160 0 192-128 192-128v192h-512z" />
<glyph unicode="&#xe93b;" glyph-name="subst-sort-table" d="M928-64h-832c-52.928 0-96 43.072-96 96v832c0 52.928 43.072 96 96 96h832c52.928 0 96-43.072 96-96v-832c0-52.928-43.072-96-96-96zM96 896c-17.632 0-32-14.336-32-32v-832c0-17.664 14.368-32 32-32h832c17.632 0 32 14.336 32 32v832c0 17.664-14.368 32-32 32h-832zM768.352 190.048l-128.352 128.352-128.32-128.352-67.872 67.904 196.192 196.192 196.224-196.192zM384 409.856l-196.192 196.192 67.872 67.904 128.32-128.352 128.352 128.352 67.872-67.904z" />
<glyph unicode="&#xe93c;" glyph-name="subst-delete" d="M928-64h-832c-52.928 0-96 43.072-96 96v832c0 52.928 43.072 96 96 96h832c52.928 0 96-43.072 96-96v-832c0-52.928-43.072-96-96-96zM96 896c-17.632 0-32-14.336-32-32v-832c0-17.664 14.368-32 32-32h832c17.632 0 32 14.336 32 32v832c0 17.664-14.368 32-32 32h-832zM880.352 766.304c-12.192 9.472-162.176-43.488-338.304-159.328-62.304 49.824-134.016 93.536-217.088 124.448-61.472 12.416-49.728 12.864-65.216-8.416l-56.384-77.44c-15.488-21.248-33.344-56.768 12.096-64.64 73.472-12.704 140.128-35.936 200.48-65.408-82.144-65.472-164.416-143.456-236.64-234.944-30.688-54.72-27.584-43.296-12.064-64.672l56.32-77.408c15.456-21.312 43.84-49.184 65.28-8.48 65.696 124.992 152.48 231.392 239.328 319.488 225.088-156.672 332.096-382.688 343.84-350.176 6.272 17.28-65.76 248.928-251.84 437.408 153.024 136.416 281.856 212.736 260.192 229.568z" />
<glyph unicode="&#xe93d;" glyph-name="subst-edit" d="M928-64h-832c-52.928 0-96 43.072-96 96v832c0 52.928 43.072 96 96 96h832c52.928 0 96-43.072 96-96v-832c0-52.928-43.072-96-96-96zM96 896c-17.632 0-32-14.336-32-32v-832c0-17.664 14.368-32 32-32h832c17.632 0 32 14.336 32 32v832c0 17.664-14.368 32-32 32h-832zM265.568 341.6l384.896 384.896 140-140-384.896-384.896-140 140zM230.656 306.656l140-140-244.928-104.896 104.928 244.896zM895.552 691.456l-69.984-69.952-139.904 140.096 70.016 69.952 139.872-140.096z" />
<glyph unicode="&#xe965;" glyph-name="undo" d="M512 896c-141.384 0-269.376-57.32-362.032-149.978l-149.968 149.978v-384h384l-143.532 143.522c69.496 69.492 165.492 112.478 271.532 112.478 212.068 0 384-171.924 384-384 0-114.696-50.292-217.636-130.018-288l84.666-96c106.302 93.816 173.352 231.076 173.352 384 0 282.77-229.23 512-512 512z" />
<glyph unicode="&#xe966;" glyph-name="redo" d="M0 384c0-152.924 67.048-290.184 173.35-384l84.666 96c-79.726 70.364-130.016 173.304-130.016 288 0 212.076 171.93 384 384 384 106.042 0 202.038-42.986 271.53-112.478l-143.53-143.522h384v384l-149.97-149.978c-92.654 92.658-220.644 149.978-362.030 149.978-282.77 0-512-229.23-512-512z" />
<glyph unicode="&#xe967;" glyph-name="predef-insert" d="M761.862-64c113.726 206.032 132.888 520.306-313.862 509.824v-253.824l-384 384 384 384v-248.372c534.962 13.942 594.57-472.214 313.862-775.628z" />
<glyph unicode="&#xe974;" glyph-name="user-block" d="M384 224c0 151.234 95.874 280.486 230.032 330.2 16.28 36.538 25.968 77.164 25.968 117.8 0 159.058 0 288-192 288s-192-128.942-192-288c0-99.060 57.502-198.104 128-237.832v-52.78c-217.102-17.748-384-124.42-384-253.388h397.306c-8.664 30.53-13.306 62.732-13.306 96zM736 512c-159.058 0-288-128.942-288-288s128.942-288 288-288c159.056 0 288 128.942 288 288s-128.942 288-288 288zM896 192h-320v64h320v-64z" />
<glyph unicode="&#xe975;" glyph-name="user-edited" d="M960 352l-288-288-96 96-64-64 160-160 352 352zM448 192h320v115.128c-67.22 39.2-156.308 66.11-256 74.26v52.78c70.498 39.728 128 138.772 128 237.832 0 159.058 0 288-192 288s-192-128.942-192-288c0-99.060 57.502-198.104 128-237.832v-52.78c-217.102-17.748-384-124.42-384-253.388h448v64z" />
<glyph unicode="&#xe986;" glyph-name="user-search" d="M992.262 88.604l-242.552 206.294c-25.074 22.566-51.89 32.926-73.552 31.926 57.256 67.068 91.842 154.078 91.842 249.176 0 212.078-171.922 384-384 384-212.076 0-384-171.922-384-384s171.922-384 384-384c95.098 0 182.108 34.586 249.176 91.844-1-21.662 9.36-48.478 31.926-73.552l206.294-242.552c35.322-39.246 93.022-42.554 128.22-7.356s31.892 92.898-7.354 128.22zM384 320c-141.384 0-256 114.616-256 256s114.616 256 256 256 256-114.616 256-256-114.614-256-256-256z" />
<glyph unicode="&#xea09;" glyph-name="user-format" d="M448 256h128v-128h-128zM704 704c35.346 0 64-28.654 64-64v-192l-192-128h-128v64l192 128v64h-320v128h384zM512 864c-111.118 0-215.584-43.272-294.156-121.844s-121.844-183.038-121.844-294.156c0-111.118 43.272-215.584 121.844-294.156s183.038-121.844 294.156-121.844c111.118 0 215.584 43.272 294.156 121.844s121.844 183.038 121.844 294.156c0 111.118-43.272 215.584-121.844 294.156s-183.038 121.844-294.156 121.844zM512 960v0c282.77 0 512-229.23 512-512s-229.23-512-512-512c-282.77 0-512 229.23-512 512s229.23 512 512 512z" />
<glyph unicode="&#xea14;" glyph-name="log-off" d="M768 320v128h-320v128h320v128l192-192zM704 384v-256h-320v-192l-384 192v832h704v-320h-64v256h-512l256-128v-576h256v192z" />
<glyph unicode="&#xea27;" glyph-name="volume-medium" d="M719.53 128.47c-12.286 0-24.566 4.686-33.942 14.056-18.744 18.744-18.744 49.136 0 67.882 131.006 131.006 131.006 344.17 0 475.176-18.744 18.746-18.744 49.138 0 67.882 18.744 18.742 49.138 18.744 67.882 0 81.594-81.59 126.53-190.074 126.53-305.466 0-115.39-44.936-223.876-126.53-305.47-9.372-9.374-21.656-14.060-33.94-14.060v0zM549.020 218.98c-12.286 0-24.566 4.686-33.942 14.058-18.746 18.746-18.746 49.134 0 67.88 81.1 81.1 81.1 213.058 0 294.156-18.746 18.746-18.746 49.138 0 67.882s49.136 18.744 67.882 0c118.53-118.53 118.53-311.392 0-429.922-9.372-9.368-21.656-14.054-33.94-14.054zM416.006 0c-8.328 0-16.512 3.25-22.634 9.374l-246.626 246.626h-114.746c-17.672 0-32 14.326-32 32v320c0 17.672 14.328 32 32 32h114.746l246.626 246.628c9.154 9.154 22.916 11.89 34.874 6.936 11.958-4.952 19.754-16.622 19.754-29.564v-832c0-12.944-7.796-24.612-19.754-29.564-3.958-1.64-8.118-2.436-12.24-2.436z" />
<glyph unicode="&#xea2a;" glyph-name="volume-mute" d="M960 340.852v-84.852h-84.852l-107.148 107.148-107.148-107.148h-84.852v84.852l107.148 107.148-107.148 107.148v84.852h84.852l107.148-107.148 107.148 107.148h84.852v-84.852l-107.148-107.148 107.148-107.148zM416.006 0c-8.328 0-16.512 3.25-22.634 9.374l-246.626 246.626h-114.746c-17.672 0-32 14.326-32 32v320c0 17.672 14.328 32 32 32h114.746l246.626 246.628c9.154 9.154 22.916 11.89 34.874 6.936 11.958-4.952 19.754-16.622 19.754-29.564v-832c0-12.944-7.796-24.612-19.754-29.564-3.958-1.64-8.118-2.436-12.24-2.436z" />
<glyph unicode="&#xea84;" glyph-name="mail-tmpl-edit" d="M853.342 960h-682.656c-93.874 0-170.686-76.81-170.686-170.69v-682.622c0-93.938 76.812-170.688 170.686-170.688h682.656c93.876 0 170.658 76.75 170.658 170.69v682.62c0 93.88-76.782 170.69-170.658 170.69zM853.342 832c7.988 0 15.546-2.334 22.020-6.342l-363.362-300.404-363.354 300.4c6.478 4.010 14.044 6.346 22.040 6.346h682.656zM170.686 64c-1.924 0-3.82 0.146-5.684 0.408l225.626 312.966-29.256 29.254-233.372-233.37v611.138l384-464.396 384 464.394v-611.136l-233.372 233.37-29.254-29.254 225.628-312.968c-1.858-0.26-3.746-0.406-5.662-0.406h-682.654z" />
</font>
</defs>
</svg>
